#TITLE:Terminal Strike;
#SUBTITLE:;
#ARTIST:Kinato;
#TITLETRANSLIT:;
#SUBTITLETRANSLIT:;
#ARTISTTRANSLIT:;
#CREDIT:;
#BANNER:termbn1.png;
#BACKGROUND:termbg1.png;
#LYRICSPATH:;
#CDTITLE:;
#MUSIC:[Kinato][T.S___Terminal_Strike][Techno].mp3;
#OFFSET:-0.050;
#SAMPLESTART:50.000;
#SAMPLELENGTH:12.000;
#SELECTABLE:YES;
#BPMS:0.000=165.000;
#STOPS:;
#BGCHANGES:;
// cache tags:
#FIRSTBEAT:0.500;
#LASTBEAT:404.000;
#SONGFILENAME:Songs/nhac/Terminal Strike/sepia.sm;
#HASMUSIC:1;
#HASBANNER:1;
#MUSICLENGTH:151.883;
// end cache tags

//---------------dance-single - ----------------
#NOTES:
     dance-single:
     :
     Challenge:
     15:
     1.000,1.000,1.000,1.000,1.000,1607.000,843.000,190.000,0.000,331.000:
0000
2002
0000
0000
0000
0000
3003
1011
,
1011
0100
1001
0010
0001
0010
1100
0010
0001
0100
1001
0010
0001
0010
1100
0010
,
0001
0100
1001
0100
0010
0100
1001
0010
0001
0100
1011
0100
0001
0100
1011
0100
,
1011
0100
1010
0001
0010
0001
1100
0010
1000
0001
1100
0010
0100
0001
0110
1000
,
0100
0010
1001
0100
0010
0001
1010
0100
1011
0100
1011
0100
1000
0001
1110
0001
,
1110
0001
1100
0010
1100
0001
1100
0010
1100
0001
1100
0010
1100
0001
1110
0010
,
1101
0010
1100
0010
0101
0010
1100
0010
1101
0100
1101
0010
1001
0100
1011
0010
,
1101
0010
1001
0100
0011
0100
1011
0100
1011
0100
1011
0100
1010
0100
0011
0100
,
1011
0010
1100
0010
1101
0010
0100
1011
1101
0010
1101
0010
1101
0001
0111
0001
,
1101
0010
0100
1010
0101
0010
1001
0100
0001
0110
0001
1010
0101
1000
0011
0100
,
1001
0100
0001
0110
1001
0100
0011
0100
0001
1010
0101
1000
0011
0100
1010
0101
,
1010
0001
0100
0001
0110
1000
0110
0001
0010
1001
0100
0011
1100
0001
1100
0010
,
1100
0001
1000
0101
1010
0100
1010
0001
0010
0101
1011
0100
0001
1001
0101
1001
,
1101
0010
0001
1100
0011
0100
1010
0001
1000
0110
1000
0101
1010
0001
1010
0100
,
1001
0010
1000
0110
1001
0010
1100
0010
1100
0011
1000
0101
1010
0100
0011
1000
,
0111
1000
0100
0011
1100
0010
0101
0010
1000
0110
0001
0110
1001
0010
1100
0010
,
1101
0000
0020
0030
0002
0003
2000
3000
0020
0030
2000
3000
0200
0300
2000
3000
0002
0003
0020
0030
0200
0300
0002
0003
2000
3000
0020
0030
0200
0300
0020
0030
,
1101
0010
1100
0000
1101
0010
0100
1000
0010
1100
0001
1010
1101
0000
1100
0010
,
0101
1000
0010
1100
1011
0100
0010
1000
0110
1000
0101
0010
1110
0000
0110
0001
,
1011
0100
0010
1000
0110
1001
0100
0011
1100
0001
0110
1000
0101
0010
1100
0011
,
1100
0010
1100
0011
0110
0001
1100
0011
0100
0011
0101
1000
0011
0011
1011
0011
,
1101
0010
1101
0010
0101
1000
0101
0010
1001
0100
0011
1000
0101
1000
0110
1000
,
0011
1000
0101
0010
1100
0001
1010
0100
0011
1000
0101
0010
1001
0100
1010
0001
,
1100
0010
1011
0100
1010
0001
1100
0010
1001
0010
1100
0001
0110
0001
1100
0010
,
1101
0010
1100
0001
1110
0001
0110
1001
1110
0101
0111
1000
0011
0011
0100
0011
,
1101
0010
0101
1000
0011
0100
1011
0100
1001
0010
0101
1000
0110
0001
1100
0011
,
0110
1000
0111
1000
0011
0110
1001
0010
1101
0010
1000
0100
0011
0100
1001
0010
,
1101
0010
0101
1000
0101
1010
0111
1001
0110
1000
0011
0100
1010
0001
0110
1010
,
0110
0001
1110
0001
1100
0010
1001
0100
1011
0110
0011
1000
0011
1100
0001
1100
,
0111
1000
0110
0001
1010
0100
1011
0100
0011
1000
0110
0001
1010
0100
1001
0110
,
1001
0100
1011
0100
1001
0110
0001
0100
1011
0100
1010
0101
0010
1001
0110
1000
,
0111
1000
0111
1000
0011
0100
1011
0100
1010
0101
1010
0101
1010
0101
1010
0101
,
1010
0100
0010
0001
0010
0100
1000
0100
0010
0001
0010
0100
0011
0100
0010
0001
0010
0100
0011
0100
0010
0001
0010
0100
,
1002
0100
0010
1000
0110
1000
0010
0100
1000
0010
1000
0010
1203
0010
0001
1000
,
0321
1000
0100
0001
1100
0001
1000
0001
2130
0010
0001
0010
3201
0010
1000
0001
,
1320
0001
0100
1000
0101
1000
0001
1000
0231
1000
0001
1000
0321
0100
1000
0100
,
1032
0010
1000
0100
1010
0100
1000
0010
1203
0011
1000
0001
1010
1010
0001
1010
,
1302
0010
1000
0100
1010
0100
0010
1000
0110
1000
0010
1000
0213
1000
0011
1000
,
0321
0100
1001
0100
0001
0100
1001
0100
2031
0010
0101
0010
3201
0010
1001
0010
,
1302
0100
0010
1000
0110
1000
0010
0100
1010
0100
0010
1000
0110
1000
0010
0100
,
1013
0001
1010
0100
1011
0100
1011
0100
1011
1101
0000
1101
0111
1101
0000
1101
,
0112
1000
0010
0100
1010
0100
0010
1000
0100
0010
1000
0010
1203
0010
1000
0001
,
1320
0100
0001
0100
1001
0100
1000
0001
2130
0001
0010
0001
3210
0001
1000
0001
,
1320
0100
0001
0100
1001
0100
1000
0001
1230
0010
0001
1000
0321
1000
0100
1000
,
0132
0010
0100
1000
0110
1000
0100
1000
0123
1001
0100
0001
1100
1100
0001
1100
,
1032
1000
0010
0100
1010
0100
1000
0010
0100
0010
1000
0010
1203
0010
1000
0010
,
1302
0010
1000
0010
1100
0010
1000
0100
2013
0100
0001
0010
3201
0010
0001
1000
,
0321
0100
1001
0100
1001
0100
1001
0100
1001
0100
1001
0100
1001
0100
1001
0100
,
1031
0110
1001
0110
1001
0110
1001
0110
1001
0110
1001
0110
1001
0110
1001
0110
1001
0110
1001
0110
1001
0110
1001
0110
,
1001
0010
0001
1100
0011
0100
0011
1000
0001
1010
0100
1010
0101
1000
0011
1000
,
0101
0010
1000
0011
1100
0010
1100
0001
1000
0110
0001
1100
0011
0100
1010
0001
,
0110
1000
0010
0101
1010
0001
1100
0010
0001
1100
0001
1100
0011
0100
0011
1000
,
0110
0001
1000
0110
1001
0100
0011
1000
0010
0101
0010
1100
0011
0100
1010
0100
,
1011
0100
0010
1001
0110
0001
1100
0001
0010
1100
0001
1100
0011
1000
0101
0010
,
0101
1000
0100
0011
1100
0010
1100
0001
1000
0110
0001
1100
0011
1000
0101
0010
,
0101
1000
0001
1010
0101
0010
1001
0100
0010
1100
0001
1100
0011
1000
0110
0001
,
1010
0100
0001
1100
0011
1000
0101
0010
1000
0101
0010
1100
0011
1000
0101
0010
,
1101
1001
0110
0110
1100
1100
0011
0011
1010
1010
0101
0101
1010
1010
1001
1001
,
0110
0110
1001
1001
0110
0110
0011
0011
1100
1100
0111
0101
1010
1010
0111
0110
,
1011
1001
1100
1100
0011
0011
1010
1010
0101
0101
0110
0110
1001
1001
1100
1100
,
0110
0110
0011
0011
0110
0110
1100
1100
0111
0011
1110
1100
0110
0110
1011
1001
,
1011
1010
0101
1010
0101
1100
0011
1100
0011
0110
1001
0110
1001
1010
0101
1010
,
0101
1100
0011
1100
0011
0110
1001
0110
1001
0101
1010
0101
1010
0011
1100
0011
,
1100
1001
0110
1001
0110
1010
0101
1010
0101
0110
1001
0110
1001
1100
0011
1100
,
0011
0000
0000
0000
0000
0000
0000
0000
0100
0000
0000
0000
0000
0000
0000
0000
1000
0000
0000
0000
0000
0000
0000
0000
0100
0000
0000
0000
0000
0000
0000
0000
0010
0000
0000
0000
0000
0000
0000
0000
0001
0000
0000
0000
0000
0000
0000
0000
1100
0000
0000
0000
0000
0000
0000
0000
0010
0000
0000
0000
0000
0000
0000
0000
0001
0000
0000
0000
0000
0000
0000
0000
0010
0000
0000
0000
0000
0000
0000
0000
0100
0000
0000
0000
0000
0000
0000
0000
0010
0000
0000
0000
0000
0000
0000
0000
1100
0000
0000
0000
0000
0000
0001
0000
0000
0000
0000
0000
0010
0000
0000
0000
0000
0000
0100
0000
0000
0000
0000
0000
1000
0000
0000
0000
0000
0000
0001
0000
0000
0000
0000
0000
0100
0000
0000
0000
0000
0000
0010
0000
0000
0000
0000
0000
1100
0000
0000
0000
0000
0000
0001
0000
0000
0000
0000
0000
0010
0000
0000
0000
0000
0000
0100
0000
0000
0000
0000
0000
1000
0000
0000
0000
0000
0000
0001
0000
0000
0000
0000
0000
0100
0000
0000
0000
0000
0000
0000
0000
0000
0000
0000
0000
,
1111
1111
1111
1111
1111
1111
1111
1111
1111
1111
1111
1111
1111
1111
1111
1111
,
1111
1111
1111
1111
1111
1111
1111
1111
2222
0000
0000
3333
1111
0000
0000
0000
,
0021
0000
0000
1000
0000
0000
0132
0000
0000
1000
0000
0000
0010
0000
0000
1200
0000
0000
0013
0000
0000
1000
0000
0000
0321
0000
0000
1000
0000
0000
0001
0000
0030
1200
0000
0000
0001
0000
0000
0010
0000
0000
2301
0000
0000
0010
0000
0000
,
3201
1000
0001
1320
0132
1000
0213
0001
1320
0132
0010
1203
0321
1000
0231
1000
,
0321
0000
0000
0100
0000
0000
1032
0000
0000
0100
0000
0000
0010
0000
0000
1203
0000
0000
0010
0000
0000
1000
0000
0000
0321
0000
0000
1000
0000
0000
0001
0000
0030
1200
0000
0000
0010
0000
0000
0001
0000
0000
2310
0000
0000
0001
0000
0000
,
3210
0000
0000
0001
0000
0000
1000
0000
0300
0021
0000
0000
1000
0000
0000
0100
0000
0000
1032
0000
0000
0010
0000
0000
1203
0000
0000
0001
0000
0000
1000
0000
0000
0321
0000
0000
0100
0000
0000
1000
0000
0000
0132
0000
0000
1000
0000
0000
,
1023
0100
1032
0010
1000
0213
1000
0001
1320
0100
0001
1230
0001
0010
2301
0100
,
3021
1000
0001
1230
0001
1000
0321
0100
1032
0123
1000
0231
1320
0100
1032
0010
,
1203
0001
1320
0100
0001
1230
0001
0010
1302
0010
1000
0123
0001
1000
0231
1000
,
0321
0100
1000
0132
0010
1000
0123
1000
0231
2310
0100
3021
1230
0010
1302
0010
,
1203
0010
1302
0100
1013
0201
0010
1000
0321
1000
0001
1230
0011
1000
0321
1000
,
0231
0010
1000
0321
1100
0001
2130
0010
3201
1320
0100
1032
0123
1000
0132
0010
,
2103
0001
3120
1000
0131
2010
0100
0010
3102
0010
0100
1023
0101
1000
0231
0010
,
2301
0010
0100
3021
1100
0001
1230
0001
1320
0132
0010
1203
0321
0100
2031
0010
,
3201
0010
1302
0010
1103
0021
1000
0100
1032
0010
0100
1023
0101
1000
0231
0010
,
2301
0100
0010
3201
1010
0001
1320
0100
1032
0123
1030
0012
1203
0001
1320
0001
,
2130
0001
3120
1000
0131
2010
0100
3001
1020
0001
1000
0231
1010
0001
2310
0100
,
3011
0000
0000
0000
0000
0000
0000
0000
1000
0000
0000
0000
0000
0000
0000
0000
0100
0000
0000
0000
0000
0000
0000
0000
0001
0000
0000
0000
0000
0000
0000
0000
0010
0000
0000
0000
0000
0000
0000
0000
1000
0000
0000
0000
0000
0000
0000
0000
0111
0000
0000
0000
0000
0000
0000
0000
1000
0000
0000
0000
0000
0000
0000
0000
0001
0000
0000
0000
0000
0000
0000
0000
0010
0000
0000
0000
0000
0000
0000
0000
0100
0000
0000
0000
0000
0000
0000
0000
0001
0000
0000
0000
0000
0000
0000
0000
1110
0000
0000
0000
0000
0000
0001
0000
0000
0000
0000
0000
0010
0000
0000
0000
0000
0000
0100
0000
0000
0000
0000
0000
1000
0000
0000
0000
0000
0000
0001
0000
0000
0000
0000
0000
0100
0000
0000
0000
0000
0000
0010
0000
0000
0000
0000
0000
1101
0000
0000
0000
0000
0000
0010
0000
0000
0000
0000
0000
0100
0000
0000
0000
0000
0000
1000
0000
0000
0000
0000
0000
0001
0000
0000
0000
0000
0000
0100
0000
0000
0000
0000
0000
0010
0000
0000
0000
0000
0000
0100
0000
0000
0000
0000
0000
,
1011
0100
0011
1100
0010
1101
0010
1100
0011
0100
1011
0100
0011
0100
1010
0101
,
1101
0011
1101
0010
1100
0011
0100
1011
0100
0011
1100
0010
1101
0100
1011
0010
,
1101
0010
0100
1011
0100
1010
0101
1000
0111
1000
0011
1100
0001
1110
0001
1100
,
0111
1000
0011
1100
0010
0101
1010
0100
1011
0110
1000
0011
1100
1100
0011
1100
,
0111
1000
0011
1100
0010
1101
0010
1100
0011
0100
1011
0100
1010
0101
1000
0111
,
1110
0001
1110
0001
0110
1001
0100
1011
0100
1010
0101
1000
0111
1000
0110
1001
,
1101
0010
0101
1101
0010
1000
0111
1000
0111
1000
0011
1100
0010
1001
0110
0001
,
1110
0001
0110
1101
0010
1000
0111
1000
0111
1000
0011
1100
0010
1001
0110
1000
,
0111
1000
0101
1010
0101
1010
0101
1100
0011
1100
0011
1100
0011
1100
0011
0110
,
1002
0003
0110
0000
1002
0003
0110
0000
1001
0000
0110
0000
1001
0000
0110
0000
2100
3000
0011
0000
1100
0000
0011
0000
1200
0300
0011
0000
2100
3000
0011
0000
,
1002
0003
0110
0000
1001
0000
0120
0030
1001
0000
0110
0000
1002
0003
0110
0000
0102
0003
1010
0000
0101
0000
1010
0000
0101
0000
1010
0000
0101
0000
1010
0000
,
0111
1000
0010
0100
0001
1000
0010
0001
1110
1000
0001
1110
0010
1000
0111
0100
,
1011
0100
1012
0013
1100
0012
1003
0110
1002
0013
1100
0012
0103
1010
0102
0013
,
2111
3010
2101
3010
0101
2010
3100
1010
2101
3010
0101
2010
3100
0011
2100
3010
,
1102
0013
2102
3013
0100
2012
3103
0010
2102
3013
0100
2012
3103
0010
2102
3013
,
0101
1000
0010
1100
0001
0010
1100
0001
1000
0011
0100
1000
0011
0100
0001
1100
0010
0100
1001
0010
0100
1010
0001
0100
,
2022
0000
0000
0000
,
0000
0000
0000
0000
,
3033
0000
0000
0000
;
